<?xml version="1.0" standalone="no"?>
<!DOCTYPE svg PUBLIC "-//W3C//DTD SVG 1.1//EN" "http://www.w3.org/Graphics/SVG/1.1/DTD/svg11.dtd" >
<svg xmlns="http://www.w3.org/2000/svg">
<metadata>Generated by IcoMoon</metadata>
<defs>
<font id="icomoon" horiz-adv-x="1024">
<font-face units-per-em="1024" ascent="960" descent="-64" />
<missing-glyph horiz-adv-x="1024" />
<glyph unicode="&#x20;" horiz-adv-x="512" d="" />
<glyph unicode="&#xe900;" glyph-name="heart-o" d="M950.857 610.286c0 160.571-108.571 194.286-200 194.286-85.143 0-181.143-92-210.857-127.429-13.714-16.571-42.286-16.571-56 0-29.714 35.429-125.714 127.429-210.857 127.429-91.429 0-200-33.714-200-194.286 0-104.571 105.714-201.714 106.857-202.857l332-320 331.429 319.429c1.714 1.714 107.429 98.857 107.429 203.429zM1024 610.286c0-137.143-125.714-252-130.857-257.143l-356-342.857c-6.857-6.857-16-10.286-25.143-10.286s-18.286 3.429-25.143 10.286l-356.571 344c-4.571 4-130.286 118.857-130.286 256 0 167.429 102.286 267.429 273.143 267.429 100 0 193.714-78.857 238.857-123.429 45.143 44.571 138.857 123.429 238.857 123.429 170.857 0 273.143-100 273.143-267.429z" />
<glyph unicode="&#xe901;" glyph-name="heart" d="M512 0c-9.143 0-18.286 3.429-25.143 10.286l-356.571 344c-4.571 4-130.286 118.857-130.286 256 0 167.429 102.286 267.429 273.143 267.429 100 0 193.714-78.857 238.857-123.429 45.143 44.571 138.857 123.429 238.857 123.429 170.857 0 273.143-100 273.143-267.429 0-137.143-125.714-252-130.857-257.143l-356-342.857c-6.857-6.857-16-10.286-25.143-10.286z" />
<glyph unicode="&#xe902;" glyph-name="youtube-play" d="M406.286 306.286l276.571 142.857-276.571 144.571v-287.429zM512 798.857c215.429 0 358.286-10.286 358.286-10.286 20-2.286 64-2.286 102.857-43.429 0 0 31.429-30.857 40.571-101.714 10.857-82.857 10.286-165.714 10.286-165.714v-77.714s0.571-82.857-10.286-165.714c-9.143-70.286-40.571-101.714-40.571-101.714-38.857-40.571-82.857-40.571-102.857-42.857 0 0-142.857-10.857-358.286-10.857v0c-266.286 2.286-348 10.286-348 10.286-22.857 4-74.286 2.857-113.143 43.429 0 0-31.429 31.429-40.571 101.714-10.857 82.857-10.286 165.714-10.286 165.714v77.714s-0.571 82.857 10.286 165.714c9.143 70.857 40.571 101.714 40.571 101.714 38.857 41.143 82.857 41.143 102.857 43.429 0 0 142.857 10.286 358.286 10.286v0z" />
<glyph unicode="&#xe903;" glyph-name="next" d="M297.373 777.373l45.255 45.255 374.627-374.627-374.627-374.627-45.255 45.255 329.347 329.373z" />
<glyph unicode="&#xe904;" glyph-name="fb" horiz-adv-x="640" d="M558 384h-150v-448h-200v448h-164v184h164v142c0 160 96 250 242 250 70 0 144-14 144-14v-158h-82c-80 0-104-48-104-100v-120h178l-28-184z" />
<glyph unicode="&#xe905;" glyph-name="search" d="M471.040 222.72c-147.456 0-266.24 118.784-266.24 266.24s118.784 266.24 266.24 266.24 266.24-118.784 266.24-266.24-118.784-266.24-266.24-266.24zM471.040 714.24c-124.928 0-225.28-100.352-225.28-225.28s100.352-225.28 225.28-225.28 225.28 100.352 225.28 225.28-100.352 225.28-225.28 225.28zM669.327 319.652l183.91-183.91-28.959-28.959-183.91 183.91z" />
<glyph unicode="&#xe906;" glyph-name="arrow_up" d="M316 280.667l-60 60 256 256 256-256-60-60-196 196z" />
<glyph unicode="&#xe907;" d="M283.092 953.474c-8.84 8.54-22.929 8.293-31.469-0.547-8.329-8.625-8.329-22.297 0-30.92l473.85-473.894-473.894-473.85c-8.84-8.54-9.084-22.627-0.547-31.469 8.54-8.84 22.627-9.084 31.469-0.547 0.186 0.179 0.367 0.361 0.547 0.547l489.607 489.607c8.688 8.69 8.688 22.777 0 31.469l-489.563 489.605z" />
<glyph unicode="&#xe908;" glyph-name="location" d="M512 448.667q44 0 75 31t31 75-31 75-75 31-75-31-31-75 31-75 75-31zM512 852.667q124 0 211-87t87-211q0-62-31-142t-75-150-87-131-73-97l-32-34q-12 14-32 37t-72 92-91 134-71 147-32 144q0 124 87 211t211 87z" />
<glyph unicode="&#xe909;" d="M267.335-63.75c-12.291-0.023-22.272 9.925-22.295 22.216-0.010 5.925 2.343 11.611 6.539 15.796l473.894 473.85-473.894 473.848c-8.702 8.702-8.702 22.81 0 31.513s22.81 8.702 31.513 0l489.607-489.607c8.688-8.69 8.688-22.777 0-31.469l-489.607-489.605c-4.173-4.187-9.844-6.543-15.756-6.543z" />
<glyph unicode="&#xe90a;" glyph-name="food-serving" d="M96 416h85.046c-1.78-4.797-2.809-10.339-2.809-16.121 0-13.956 5.998-26.512 15.558-35.229l0.038-0.034 131.368-120.388c0.11-0.1 0.2-0.212 0.322-0.308l207.586-179.92h-5.108c-8.837 0-16-7.163-16-16v0-64c0-8.837 7.163-16 16-16v0h192c8.837 0 16 7.163 16 16v0 64c0 8.837-7.163 16-16 16v0 25.374l8.568 8.568c14.474 14.397 23.432 34.327 23.432 56.349 0 0.077 0 0.154 0 0.23v-0.012 98.024l58 127.6c2.727 5.826 4.318 12.651 4.318 19.847 0 5.744-1.014 11.25-2.872 16.351l0.106-0.332h116.448c26.497 0.032 47.968 21.503 48 47.997v32.003c0 8.837-7.163 16-16 16v0h-64v16c0 185.272-150.728 336-336 336v32h16c8.837 0 16 7.163 16 16s-7.163 16-16 16v0h-128c-8.837 0-16-7.163-16-16s7.163-16 16-16v0h16v-32c-185.272 0-336-150.728-336-336v-16h-64c-8.837 0-16-7.163-16-16v0-32c0.032-26.497 21.503-47.968 47.997-48h0.003zM211.354 405.8c2.276 6.008 7.982 10.202 14.668 10.202 0.086 0 0.171-0.001 0.257-0.002h9.121c6.434-0.008 11.979-3.805 14.525-9.279l0.041-0.099 12.028-26.46v-0.024l26.96-59.31-73.5 67.372c-3.231 2.879-5.256 7.052-5.256 11.698 0 2.128 0.425 4.156 1.194 6.006l-0.038-0.104zM704 0h-160v32h160zM779.756 408.662c1.62-2.433 2.585-5.424 2.585-8.64 0-2.411-0.543-4.695-1.512-6.738l0.041 0.095-59.436-130.758c-0.905-1.945-1.433-4.222-1.434-6.622v0-101.49c0-0.038 0-0.083 0-0.129 0-13.214-5.374-25.174-14.056-33.811l-13.258-13.256c-2.895-2.895-4.686-6.895-4.686-11.313 0 0 0 0 0-0.001v0-32h-106.032l-232.848 201.8-58 127.578c-0.906 1.945-1.435 4.222-1.435 6.622 0 8.837 7.163 16 16 16 0.004 0 0.008 0 0.011 0h10.525c0.017 0 0.036 0 0.056 0 6.213 0 11.594-3.561 14.214-8.753l0.042-0.091 55.156-110.312c1.777-3.5 4.698-6.205 8.261-7.661l0.107-0.039 160-64c1.759-0.724 3.801-1.144 5.941-1.144 1.378 0 2.716 0.174 3.992 0.502l-0.111-0.024 64 16c4.415 1.129 8.020 3.98 10.124 7.778l0.042 0.082 86.904 159.324c2.77 5.005 8.019 8.338 14.046 8.338 0.001 0 0.003 0 0.004 0h27.308c0.043 0 0.094 0.001 0.144 0.001 5.575 0 10.473-2.901 13.266-7.275l0.038-0.063zM361.888 416h331.16l-79.734-146.18-52.176-13.042-149.538 59.822zM496 896h32v-32h-32zM160 528c0 167.626 136.374 304 304 304h96c167.626 0 304-136.374 304-304v-16h-704zM80 480h864v-16c-0.010-8.832-7.168-15.99-15.999-16h-832.001c-8.832 0.010-15.99 7.168-16 15.999v0.001z" />
<glyph unicode="&#xe90b;" glyph-name="fork" horiz-adv-x="1026" d="M762.669 549.119l60.282 3.82c0.102 0.008 0.211 0.016 0.321 0.023 42.959 3.624 81.519 26.129 105.8 61.761l47.656 69.918c41.479 60.869 57.55 134.387 45.237 207.006-2.419 14.262-9.714 27.405-20.532 36.994-10.826 9.597-24.744 15.264-39.194 15.953-73.597 3.523-144.634-21.252-200.086-69.73l-63.703-55.695c-32.462-28.376-50.184-69.354-48.634-112.446 0.008-0.102 0.008-0.211 0.016-0.321l3.436-60.297c1.339-23.507-7.28-46.701-23.601-63.593l-497.675-511.264c-13.323-13.894-20.204-32.955-19.366-53.675 0.924-22.81 11.389-45.213 28-59.937 15.006-13.299 35.632-20.877 56.25-20.877 2.207 0 4.415 0.086 6.614 0.266 20.673 1.652 38.779 10.763 51.037 25.746l447.804 555.256c14.849 18.27 36.845 29.605 60.337 31.092zM678.427 537.378l-447.765-555.209c-6.841-8.36-17.362-13.511-29.62-14.489-14.583-1.166-29.534 3.687-40.008 12.971-10.474 9.292-17.080 23.554-17.667 38.168-0.501 12.282 3.342 23.342 10.748 31.061l497.636 511.225c22.309 23.084 34.051 54.701 32.235 86.748l-3.436 60.141c-1.166 33.73 12.728 65.8 38.145 88.023l63.703 55.695c49.44 43.217 112.798 65.284 178.38 62.168 7.468-0.36 14.654-3.288 20.25-8.25 5.597-4.955 9.362-11.75 10.614-19.115 10.975-64.744-3.35-130.278-40.329-184.54l-47.656-69.926c-19.014-27.898-49.19-45.534-82.818-48.423l-60.117-3.804c-32.031-2.035-62.012-17.487-82.294-42.442zM997.589 75.131l-333.691 303.93c-6.278 5.722-16 5.268-21.73-1.010-5.714-6.278-5.26-16.008 1.018-21.73l333.605-303.859c7.937-7.335 12.438-18.145 12.681-30.434 0.29-14.622-5.448-29.252-15.35-39.155-9.894-9.894-24.501-15.648-39.155-15.35-12.29 0.243-23.1 4.744-30.356 12.595l-297.346 326.45c-5.722 6.286-15.452 6.732-21.73 1.018-6.278-5.722-6.732-15.452-1.010-21.73l297.417-326.528c13.072-14.137 31.687-22.153 52.423-22.56 0.54-0.008 1.072-0.016 1.613-0.016 22.286 0 44.571 9.041 59.89 24.368 15.703 15.703 24.806 38.693 24.352 61.511-0.407 20.736-8.415 39.35-22.63 52.501zM185.581 552.031c25.456-23.452 58.528-36.822 93.127-37.652 0.11-0.008 0.219-0.008 0.321-0.008l60.399-0.188c23.546-0.070 46.176-10.067 62.059-27.374l26.607-29.205c3.037-3.335 7.194-5.025 11.374-5.025 3.695 0 7.405 1.323 10.348 4.008 6.286 5.722 6.74 15.452 1.018 21.73l-26.646 29.245c-21.699 23.656-52.556 37.276-84.658 37.386l-60.235 0.188c-26.763 0.681-52.352 10.928-72.18 28.877l-175.037 208.078c-1.785 2.129-1.652 5.213 0.313 7.178 1.346 1.354 2.928 1.55 3.75 1.55s2.403-0.196 3.757-1.55l159.327-159.335c15.75-15.75 41.378-15.75 57.127 0.008l51.969 51.969s0.008 0 0.008 0.008c0 0 0.008 0.008 0.008 0.008l18.716 18.716c15.75 15.75 15.75 41.378 0 57.127l-159.327 159.327c-2.067 2.067-2.067 5.44 0 7.507 1.965 1.965 5.049 2.098 7.178 0.313l208.078-175.045c17.957-19.82 28.204-45.417 28.885-72.172l0.18-60.243c0.11-32.094 13.738-62.951 37.425-84.697l28.509-25.965c6.286-5.722 16.008-5.268 21.73 1.010 5.714 6.286 5.26 16.008-1.018 21.73l-28.462 25.926c-17.354 15.922-27.342 38.56-27.421 62.098l-0.188 60.399c0 0.11 0 0.219-0.008 0.329-0.83 34.599-14.2 67.671-37.652 93.127-0.438 0.477-0.908 0.932-1.409 1.354l-208.853 175.687c-14.434 12.149-35.382 11.241-48.72-2.098-14.067-14.067-14.067-36.947 0-51.006l159.327-159.335c3.757-3.757 3.757-9.871 0-13.628l-7.851-7.843-177.573 177.566c-6.004 6.012-15.742 6.012-21.746 0-6.004-6.004-6.004-15.742 0-21.746l177.573-177.573-11.507-11.499-177.573 177.566c-6.004 6.004-15.742 6.004-21.746 0-6.012-6.004-6.012-15.742 0-21.746l177.566-177.573-7.843-7.851c-3.757-3.757-9.871-3.757-13.628 0l-159.335 159.327c-6.81 6.81-15.867 10.568-25.503 10.568s-18.693-3.757-25.503-10.568c-13.339-13.339-14.239-34.286-2.098-48.728l175.695-208.845c0.415-0.501 0.869-0.971 1.346-1.409z" />
<glyph unicode="&#xe90c;" glyph-name="cutlery" d="M992.211 23.721c15.997-14.563 21.504-50.22 0.842-70.7-20.525-20.684-56.25-15.2-70.745 0.774-134.096 143.994-268.123 288.056-402.218 432.096l-15.246 16.27c-140.262-150.593-280.479-301.254-420.695-451.915-14.449-15.951-50.107-21.458-70.632-0.774-20.707 20.502-15.246 56.25 0.728 70.745 151.139 140.581 302.164 281.207 453.281 421.856 0 0-73.135 78.892-104.673 112.751-73.795-52.905-183.155-32.79-248.895 48.377-70.7 85.627-131.683 238.769-72.657 301.482 62.781 59.072 215.832-2.048 301.459-72.68 81.145-65.808 101.374-175.009 48.354-248.849 38.001-35.407 76.002-70.723 114.048-106.107-0.091-0.068-0.137-0.114-0.228-0.182 0 0 2.367-1.866 0.228 0.182 35.543 33.109 71.11 66.194 106.676 99.303-30.037 51.29-10.080 123.219 38.706 164.269 55.955 46.898 263.276 224.888 268.851 219.245 5.552-5.529-139.853-142.924-236.994-240.362l16.202-16.179c103.695 90.884 250.078 227.186 255.721 221.634 5.552-5.575-135.302-147.453-229.28-248.144l16.088-16.042c100.532 94.047 242.455 234.923 247.962 229.394 5.575-5.598-130.751-152.004-221.634-255.698l16.088-16.065c97.392 97.141 234.718 242.546 240.339 237.039 5.62-5.598-218.858-268.623-219.177-269.010-0.046 0.046 47.649 56.023-0.182 0.137-45.647-53.406-113.821-69.562-164.223-38.797-32.722-35.111-65.375-70.222-98.052-105.333-2.867 2.708 300.003-279.159 449.958-418.716z" />
<glyph unicode="&#xe90d;" glyph-name="shopping-cart" horiz-adv-x="951" d="M365.714 73.143c0-40-33.143-73.143-73.143-73.143s-73.143 33.143-73.143 73.143 33.143 73.143 73.143 73.143 73.143-33.143 73.143-73.143zM877.714 73.143c0-40-33.143-73.143-73.143-73.143s-73.143 33.143-73.143 73.143 33.143 73.143 73.143 73.143 73.143-33.143 73.143-73.143zM950.857 694.857v-292.571c0-18.286-14.286-34.286-32.571-36.571l-596.571-69.714c2.857-13.143 7.429-26.286 7.429-40 0-13.143-8-25.143-13.714-36.571h525.714c20 0 36.571-16.571 36.571-36.571s-16.571-36.571-36.571-36.571h-585.143c-20 0-36.571 16.571-36.571 36.571 0 17.714 25.714 60.571 34.857 78.286l-101.143 470.286h-116.571c-20 0-36.571 16.571-36.571 36.571s16.571 36.571 36.571 36.571h146.286c38.286 0 39.429-45.714 45.143-73.143h686.286c20 0 36.571-16.571 36.571-36.571z" />
<glyph unicode="&#xe90e;" glyph-name="serving-dish" d="M980.4 437.4c-12 0-23.8 0-35.8 0 1.6 0.2-14.4 83.4-16.6 91.6-26.8 99-91.4 186.8-177.4 243.2-53.2 35-114 58.2-177.2 67.2 7.4 11.6 11.6 25.2 11.6 39.6 0 8.2-3.6 23.2-28 32.2-12.2 4.4-28.2 7-45.2 7s-33-2.4-45.2-7c-24.4-9-28-24-28-32.2 0-14.2 4.2-27.8 11.6-39.4-90.4-12.8-174.4-53.8-241-118.6-77.8-75.6-123.6-175.8-130.4-283.6h-35.2c-24 0-43.6-19.6-43.6-43.8v-18.2c0-24.2 19.6-43.8 43.6-43.8h161.4c-8-5.6-15.8-11.8-23-18.6l-0.2-0.2c-0.4-0.4-0.8-0.8-1.2-1.4l-71.2-86.4c-9 5.6-19.4 7.8-30 5.8-10.8-2-20.2-8.2-26.4-17.4l-28-41.2c-12.8-18.8-7.8-44.6 11-57.4l191.4-130c7-4.8 15-7.2 23.2-7.2 2.6 0 5.2 0.2 7.8 0.8 10.8 2 20.2 8.2 26.4 17.4l28 41.2c12.8 18.8 7.8 44.6-11 57.4l-1 0.8c13.4 15.2 31 26 50.4 30.4 40.8 9.4 88.6 3.4 121.2-2 40.2-6.6 82.4-4.4 122 6.6l55.2 15.2c36.8 10.2 70.6 27.2 100.6 50.8 0.2 0.2 0.4 0.4 0.6 0.6l94.6 83.8c16.2 12.4 19.6 33.8 14 51h120.8c24 0 43.6 19.6 43.6 43.6v18.2c0.2 24.4-19.4 44-43.4 44zM512 888c25.2 0 40.4-6.2 43.2-9.8-0.2-14.2-7.4-27.4-19-35.2-3 0.2-5.8 0.2-8.8 0.4-1 0-2 0-3 0.2-4.2 0.2-8.4 0.2-12.4 0.2-2.8 0-5.8 0-8.8-0.2-1.4 0-2.8 0-4.2-0.2-1.8 0-3.4-0.2-5.2-0.2-2 0-4-0.2-5.8-0.2-11.6 7.8-18.8 21-19 35.2 2.6 3.6 17.8 9.8 43 9.8zM230.4 699.4c69.4 67.4 158.8 107.2 254.6 113.4 0 0 0.2 0 0.2 0 4 0.2 8.2 0.4 12 0.6 0.8 0 1.6 0 2.4 0 1.4 0 2.8 0 4.2 0.2 2.6 0 5.4 0 8 0 3.6 0 7.2 0 10.8-0.2 1 0 2.2 0 3.2 0 2.8 0 5.4-0.2 8.2-0.4 1.4 0 3-0.2 4.4-0.2 106.6-6.8 209.4-58 279.2-139 27.6-32 50.6-69.2 66.8-108.6 8.4-20.2 15-41.2 20-62.4 4.6-20.4 11-43.6 10.4-64.6 0-0.2 0-1-0.2-1 0 0-634 0-634 0h-171.4c6.6 99.6 49.4 192.2 121.2 262.2zM288 53.8l-28-41.2c-1.8-2.6-4.4-4.2-7.4-4.8s-6 0-8.6 1.8l-191.4 130c-5.2 3.6-6.6 10.6-3 15.8l28 41.2c1.8 2.6 4.2 4.2 7.2 4.8 0.8 0.2 1.4 0.2 2.2 0.2 2.2 0 4.4-0.6 6.4-2l10.4-7c0 0 0 0 0 0l181-123c5.4-3.4 6.8-10.6 3.2-15.8zM827 304.2c-0.4-0.2-0.8-0.6-1-0.8l-94.8-84c-26.8-21-56.8-36.2-89.6-45.2l-55.2-15.2c-35.6-9.8-73.2-11.8-109.2-6-35 5.8-86.8 12.2-132.8 1.6-26.6-6.2-50.8-21.4-68.6-42.6l-141.6 96.2 68.8 83.4c26 24.6 59 39.2 90.6 40h0.6c9.8 0.2 20.2-2.8 31.2-5.8 2.2-0.6 4.4-1.2 6.6-1.8l99.2-26.8c2.2-0.6 4.6-0.6 7-0.2l130 27c5.8 1.2 12 0 17-3.2 3.2-2.2 5.6-5.2 7.2-8.6 4.4-10.2 0.2-22-9.6-27l-44.8-23.4c-6.2-3.2-9.2-10.2-7.4-17s7.8-11.4 14.8-11.2l65.8 1.4c1.4 0 2.6 0.2 3.8 0.6l92.6 26.8c1.4 0.4 2.8 1 4.2 1.8l93.4 61.8c7.8 4.8 18.2 8.8 23.8 0.6 4.2-6.2 4.4-17.6-2-22.4zM418.6 331.8h38.4l-21.6-4.6-16.8 4.6zM619.4 324.4c-1.2 2.6-2.4 5-4 7.2h143.6l-62.2-41.2-88.6-25.6h-3c17.4 14.4 23.6 38.6 14.2 59.6zM994 375.4c0-7.6-6.2-13.8-13.8-13.8h-936.6c-7.6 0-13.8 6.2-13.8 13.8v18.2c0 7.6 6.2 13.8 13.8 13.8h936.8c7.6 0 13.8-6.2 13.8-13.8v-18.2z" />
<glyph unicode="&#xe90f;" glyph-name="shopping-bag" d="M895.976 680.608c-0.312 4.168-3.8 7.392-7.976 7.392h-144v40c0 127.928-104.080 232-232 232s-232-104.072-232-232v-40h-144c-4.176 0-7.664-3.224-7.976-7.392l-56-736c-0.168-2.216 0.592-4.408 2.112-6.040 1.512-1.64 3.64-2.568 5.864-2.568h864c2.224 0 4.352 0.928 5.864 2.56s2.28 3.824 2.112 6.040l-56 736.008zM344 728c0 92.632 75.36 168 168 168s168-75.368 168-168v-40h-336v40zM312 464c-44.12 0-80 35.888-80 80 0 31.928 16 60.696 48 73.32v-73.32c0-17.648 14.36-32 32-32s32 14.352 32 32v73.272c32-12.624 48-41.608 48-73.272 0-44.112-35.88-80-80-80zM712 464c-44.12 0-80 35.888-80 80 0 31.928 16 60.696 48 73.32v-73.32c0-17.648 14.36-32 32-32s32 14.352 32 32v73.272c32-12.624 48-41.608 48-73.272 0-44.112-35.88-80-80-80z" />
<glyph unicode="&#xe910;" glyph-name="wedding-rings" d="M743.538 607.272l60.94 60.94-43.42 50.53h-104.61l-43.42-50.53 60.94-60.94c-59.114-6.558-115.316-29.726-161.964-67.014-46.648 37.288-102.85 60.456-161.964 67.014l60.94 60.94-43.42 50.53h-104.61l-43.42-50.53 60.94-60.94c-157.528-17.37-280.47-151.248-280.47-313.32 0-173.828 141.42-315.25 315.25-315.25 71.668 0 141.026 24.4 196.75 68.944 55.724-44.544 125.084-68.944 196.75-68.944 173.83 0 315.25 141.422 315.25 315.25 0 162.072-122.942 295.95-280.462 313.32zM654.474 669.78l15.94 18.55h76.674l15.938-18.55-54.276-54.276-54.276 54.276zM260.972 669.78l15.94 18.55h76.674l15.938-18.55-54.276-54.276-54.276 54.276zM315.25 9.118c-157.058 0-284.834 127.776-284.834 284.834s127.776 284.834 284.834 284.834c68.674 0 135.006-24.784 186.774-69.788 16.070-13.968 30.616-29.796 43.236-47.044 35.866-49.016 54.824-107.11 54.824-168.004 0-55.146-15.55-108-45.126-153.892-0.384 0.384-0.752 0.78-1.132 1.166-1.668 1.694-3.318 3.404-4.93 5.148-0.714 0.772-1.41 1.562-2.11 2.344-1.322 1.472-2.63 2.958-3.91 4.466-0.736 0.866-1.462 1.738-2.184 2.616-1.236 1.502-2.45 3.026-3.646 4.56-0.674 0.864-1.35 1.726-2.010 2.6-1.31 1.734-2.586 3.496-3.842 5.272-0.39 0.55-0.792 1.090-1.178 1.646 21.774 37.62 33.238 80.306 33.238 124.074 0 43.85-11.518 86.602-33.37 124.274l0.122 0.192-5.16 8.144c-9.966 15.718-21.634 30.234-34.814 43.324-4.394 4.364-8.956 8.57-13.678 12.608l-12.468 10.664-0.322-0.44c-42.678 31.858-94.74 49.24-148.312 49.24-136.75 0-248.004-111.256-248.004-248.004s111.254-248.002 248.004-248.002c53.706 0 105.894 17.466 148.63 49.474 0.19-0.236 0.392-0.462 0.582-0.696 1.078-1.322 2.184-2.622 3.282-3.928 0.846-1.002 1.682-2.014 2.538-3.006 1.172-1.354 2.37-2.684 3.564-4.020 0.818-0.914 1.624-1.84 2.452-2.744 1.312-1.432 2.652-2.836 3.99-4.244 0.74-0.778 1.468-1.574 2.216-2.344 1.63-1.682 3.292-3.332 4.96-4.976 0.456-0.45 0.898-0.912 1.354-1.36-49.608-38.15-110.606-58.988-173.57-58.988zM578.154 467.92c37.534 28.19 83.378 43.62 130.596 43.62 119.978 0 217.588-97.61 217.588-217.588s-97.61-217.584-217.588-217.584c-47.216 0-93.062 15.43-130.596 43.62 34.284 51.638 52.344 111.47 52.344 173.968 0 62.494-18.058 122.328-52.344 173.964zM512 201.022c-13.668 28.908-20.836 60.57-20.836 92.93s7.168 64.024 20.836 92.93c13.668-28.908 20.836-60.57 20.836-92.93s-7.168-64.022-20.836-92.93zM445.846 467.92c-34.284-51.638-52.344-111.47-52.344-173.968 0-62.496 18.058-122.33 52.344-173.968-37.534-28.19-83.38-43.62-130.596-43.62-119.978 0-217.588 97.608-217.588 217.586s97.61 217.59 217.588 217.59c47.218 0 93.062-15.43 130.596-43.62zM708.75 9.118c-68.674 0-135.006 24.784-186.774 69.788-16.068 13.966-30.616 29.796-43.236 47.044-35.866 49.016-54.824 107.11-54.824 168.002 0 55.146 15.55 108.002 45.124 153.892 0.388-0.388 0.76-0.788 1.144-1.178 1.666-1.69 3.312-3.396 4.92-5.138 0.71-0.768 1.402-1.556 2.1-2.334 1.328-1.478 2.64-2.97 3.928-4.486 0.728-0.858 1.448-1.724 2.164-2.592 1.244-1.512 2.466-3.044 3.67-4.588 0.668-0.856 1.338-1.71 1.994-2.578 1.31-1.734 2.584-3.496 3.842-5.27 0.392-0.554 0.796-1.096 1.182-1.654-21.774-37.62-33.238-80.306-33.238-124.076 0-43.85 11.518-86.6 33.37-124.272l-0.124-0.192 5.162-8.144c13.286-20.956 29.6-39.776 48.49-55.932l12.468-10.664 0.322 0.442c42.68-31.858 94.738-49.24 148.312-49.24 136.75 0 248.004 111.252 248.004 248.002s-111.252 248.002-248.004 248.002c-53.706 0-105.894-17.466-148.63-49.476-0.19 0.236-0.392 0.462-0.582 0.696-1.076 1.32-2.178 2.618-3.276 3.92-0.848 1.006-1.688 2.022-2.548 3.016-1.16 1.34-2.346 2.658-3.528 3.978-0.832 0.928-1.65 1.87-2.492 2.788-1.284 1.402-2.596 2.774-3.902 4.15-0.77 0.812-1.526 1.636-2.306 2.442-1.562 1.61-3.154 3.188-4.746 4.764-0.524 0.518-1.032 1.050-1.56 1.566 49.608 38.15 110.604 58.986 173.572 58.986 157.058 0 284.834-127.776 284.834-284.834 0.002-157.056-127.774-284.83-284.832-284.83zM496.792 917.298h30.416v-94.688h-30.416v94.688zM603.627 803.767l39.749 85.937 27.604-12.768-39.749-85.937-27.604 12.768zM353.001 876.929l27.604 12.768 39.749-85.937-27.604-12.768-39.749 85.937z" />
<glyph unicode="&#xe911;" glyph-name="wine-bottle" d="M500.902-64h-307.74c-8.398 0-14.997 6.599-14.997 14.997v410.92c0 56.389 22.796 116.377 47.991 179.965 25.795 66.587 53.39 134.374 53.39 200.961v75.585c0 8.398 6.599 14.997 14.997 14.997s14.997-6.599 14.997-14.997v-75.585c0-71.986-28.194-142.772-55.189-211.759-23.995-61.188-46.191-118.177-46.191-169.167v-397.722h277.746v401.322c0 47.991-22.796 104.38-46.191 164.368-26.995 70.186-55.789 142.172-55.789 215.358v74.385c0 8.398 7.199 14.997 14.997 14.997 8.398 0 14.997-6.599 14.997-14.997v-74.385c0-67.787 27.595-136.773 53.39-204.56 23.995-62.388 47.391-121.176 47.391-175.166v-415.119c0-7.798-6.599-14.397-13.797-14.397zM500.902 40.979h-188.363c-8.398 0-14.997 6.599-14.997 14.997v409.72c0 8.398 6.599 14.997 14.997 14.997h167.367c8.398 0 14.997-6.599 14.997-14.997 0-7.798-6.599-14.397-14.997-14.397h-152.37v-382.125h173.366c7.798 0 14.397-6.599 14.397-14.997s-7.199-13.197-14.397-13.197zM435.515 804.63h-177.565c-8.398 0-14.997 6.599-14.997 14.997v55.789c0 7.798 6.599 13.797 14.997 13.797h177.565c8.398 0 14.997-6.599 14.997-13.797v-56.989c0-7.199-6.599-13.797-14.997-13.797zM272.947 833.425h148.771v27.595h-148.771zM398.322 861.019c-8.398 0-14.997 6.599-14.997 14.997v53.989h-74.985v-53.989c0-8.398-6.599-14.997-14.997-14.997s-14.997 6.599-14.997 14.997v68.987c0 8.398 6.599 14.997 14.997 14.997h104.38c7.798 0 14.997-6.599 14.997-14.997v-68.987c0.6-8.398-5.999-14.997-14.397-14.997zM702.463 101.568c-41.992 0-83.984 19.196-110.978 50.99-23.395 26.395-34.193 59.988-29.994 92.982l23.395 167.967c0.6 8.398 7.798 13.197 16.197 12.598s13.197-8.398 12.598-16.797l-23.395-167.967c-2.999-24.595 5.399-49.79 23.395-69.586 21.596-25.195 56.389-40.792 89.982-40.792 32.994 0 67.787 15.597 89.982 41.392 11.998 14.397 26.395 38.393 22.196 68.987l-22.196 167.967c-1.2 8.398 3.599 14.997 11.998 16.797 8.398 0.6 14.997-4.199 16.797-12.598l22.196-167.967c4.199-32.994-5.399-65.387-28.794-92.382-28.194-31.194-71.386-51.59-113.378-51.59zM702.463 357.118c-58.789 0-117.577 17.996-117.577 53.989 0 36.593 61.188 53.39 117.577 53.39 57.589 0 119.377-16.797 119.377-53.39 0-34.793-59.988-53.989-119.377-53.989zM702.463 436.302c-58.189 0-88.783-18.596-88.783-24.595 0-6.599 30.594-24.595 88.783-24.595 59.388 0 89.982 17.996 89.982 24.595 0 5.999-30.594 24.595-89.982 24.595zM702.463-64c-7.798 0-14.997 6.599-14.997 14.997v165.568c0 8.398 7.199 14.997 14.997 14.997 8.398 0 14.997-6.599 14.997-14.997v-165.568c-0.6-8.398-6.599-14.997-14.997-14.997zM804.443-64h-203.36c-8.398 0-14.997 6.599-14.997 14.997s6.599 14.997 14.997 14.997h203.36c7.798 0 14.397-6.599 14.397-14.997s-6.599-14.997-14.397-14.997z" />
<glyph unicode="&#xe912;" glyph-name="arrow_right" d="M366 230.667l196 196-196 196 60 60 256-256-256-256z" />
<glyph unicode="&#xe913;" glyph-name="noun_link" horiz-adv-x="1020" d="M395.458 330.148h-209.514c-72.020-1.309-132.256 56.307-132.256 128.327-1.309 73.33 56.307 133.565 128.327 134.875 1.309 0 2.619 0 3.928 0h209.514c14.404 0 26.189 11.785 26.189 26.189s-11.785 26.189-26.189 26.189h-209.514c-100.829 0-183.325-81.187-183.325-183.325 0-100.829 81.187-183.325 183.325-183.325h209.514c14.404-1.309 26.189 10.476 27.499 24.88s-10.476 26.189-24.88 27.499c0-1.309-1.309-1.309-2.619-1.309zM1012.215 458.476c0 100.829-81.187 183.325-183.325 183.325 0 0 0 0 0 0h-209.514c-14.404 0-26.189-13.095-24.88-27.499 0-13.095 11.785-24.88 24.88-24.88h209.514c72.020-1.309 129.637-61.545 128.327-133.565-1.309-70.711-58.926-127.018-128.327-128.327h-209.514c-14.404 1.309-26.189-10.476-27.499-24.88s10.476-26.189 24.88-27.499c1.309 0 1.309 0 2.619 0h209.514c100.829 0 183.325 81.187 183.325 183.325 0 0 0 0 0 0zM246.179 461.095c0-6.547 2.619-13.095 7.857-18.332s11.785-7.857 18.332-7.857l471.407-1.309c14.404 0 26.189 11.785 26.189 26.189s-11.785 26.189-26.189 26.189l-471.407 1.309c-14.404 0-26.189-11.785-26.189-26.189 0 0 0 0 0 0z" />
<glyph unicode="&#xe914;" glyph-name="volume" d="M451.386 864.995c-8.455 3.705-18.432 1.955-25.183-4.455l-239.679-226.364h-163.25c-12.864 0-23.273-10.409-23.273-23.271v-325.818c0-12.864 10.409-23.273 23.273-23.273h163.25l239.682-226.364c4.409-4.183 10.159-6.364 15.977-6.364 3.113 0 6.251 0.613 9.205 1.909 8.546 3.659 14.068 12.068 14.068 21.364v791.272c-0.002 9.297-5.524 17.705-14.071 21.364zM418.909 106.359l-207.159 195.637c-4.318 4.091-10.045 6.364-15.977 6.364h-149.228v279.273h149.228c5.932 0 11.66 2.273 15.977 6.364l207.159 195.633v-683.272zM811.774 862.473c-10.501 7.569-25.023 5.204-32.5-5.182-7.545-10.409-5.228-24.956 5.182-32.5 120.864-87.546 192.999-228.41 192.999-376.796s-72.138-289.25-192.999-376.796c-10.409-7.545-12.727-22.091-5.182-32.5 4.545-6.273 11.66-9.613 18.864-9.613 4.728 0 9.5 1.431 13.636 4.431 132.886 96.273 212.228 251.228 212.228 414.478-0.002 163.25-79.342 318.205-212.228 414.478zM685.113 723.7c-10.796 6.818-25.228 3.567-32.090-7.318-6.84-10.863-3.567-25.228 7.318-32.090 81.978-51.591 130.931-139.931 130.931-236.295s-48.956-184.704-130.931-236.295c-10.887-6.864-14.16-21.227-7.318-32.090 4.431-7.045 12-10.887 19.728-10.887 4.228 0 8.522 1.159 12.364 3.567 95.612 60.181 152.703 163.226 152.703 275.703s-57.092 215.522-152.706 275.706zM595.091 559.745c-10.318 7.704-24.886 5.522-32.568-4.75-7.682-10.318-5.546-24.91 4.75-32.568 24.046-17.908 37.817-45.022 37.817-74.433 0-29.409-13.774-56.522-37.817-74.433-10.296-7.658-12.432-22.25-4.75-32.568 4.569-6.137 11.568-9.364 18.683-9.364 4.817 0 9.705 1.501 13.887 4.615 35.932 26.749 56.546 67.499 56.546 111.751s-20.616 84.999-56.548 111.751z" />
<glyph unicode="&#xe915;" glyph-name="play" d="M236.416 846.55c-6.528 4.267-14.507 6.784-23.083 6.784-23.552 0-42.667-19.115-42.667-42.667v-768c-0.043-7.765 2.133-15.872 6.784-23.083 12.757-19.84 39.125-25.557 58.965-12.8l597.333 384c4.864 3.072 9.344 7.424 12.8 12.8 12.757 19.84 6.997 46.208-12.8 58.965zM256 732.502l475.776-305.835-475.776-305.835z" />
<glyph unicode="&#xe916;" glyph-name="arrow-right" d="M567.168 627.499c-16.683-16.683-16.683-43.648 0-60.331l97.835-97.835h-323.669c-23.552 0-42.667-19.115-42.667-42.667s19.115-42.667 42.667-42.667h323.669l-97.835-97.835c-16.683-16.683-16.683-43.648 0-60.331 8.32-8.32 19.243-12.501 30.165-12.501s21.845 4.181 30.165 12.501l200.832 200.832-200.832 200.832c-16.683 16.683-43.648 16.683-60.331 0z" />
<glyph unicode="&#xe917;" glyph-name="arrow-up" d="M554.667 700.331l-200.832-200.832c-16.683-16.683-16.683-43.648 0-60.331s43.648-16.683 60.331 0l97.835 97.835v-323.669c0-23.552 19.072-42.667 42.667-42.667s42.667 19.115 42.667 42.667v323.669l97.835-97.835c8.32-8.32 19.243-12.501 30.165-12.501s21.845 4.181 30.165 12.501c16.683 16.683 16.683 43.648 0 60.331l-200.832 200.832z" />
<glyph unicode="&#xe918;" glyph-name="arrow-down" d="M712.832 371.499c-16.683 16.683-43.648 16.683-60.331 0l-97.835-97.835v323.669c0 23.552-19.072 42.667-42.667 42.667s-42.667-19.115-42.667-42.667v-323.669l-97.835 97.835c-16.683 16.683-43.648 16.683-60.331 0s-16.683-43.648 0-60.331l200.832-200.832 200.832 200.832c16.683 16.683 16.683 43.648 0 60.331z" />
<glyph unicode="&#xe919;" glyph-name="arrow_left" d="M658 230.667l-60-60-256 256 256 256 60-60-196-196z" />
<glyph unicode="&#xe91a;" glyph-name="trip" horiz-adv-x="1317" d="M372 381.143c0-29.714-24-53.714-53.143-53.714-29.714 0-53.714 24-53.714 53.714 0 29.143 24 53.143 53.714 53.143 29.143 0 53.143-24 53.143-53.143zM1031.429 381.714c0-29.714-24-53.714-53.714-53.714s-53.714 24-53.714 53.714 24 53.143 53.714 53.143 53.714-23.429 53.714-53.143zM437.143 381.143c0 60.571-49.714 110.286-110.286 110.286-61.143 0-110.286-49.714-110.286-110.286 0-61.143 49.143-110.286 110.286-110.286 60.571 0 110.286 49.143 110.286 110.286zM1096 381.714c0 60.571-49.143 110.286-110.286 110.286-60.571 0-110.286-49.714-110.286-110.286 0-61.143 49.714-110.286 110.286-110.286 61.143 0 110.286 49.143 110.286 110.286zM485.714 381.143c0-88-70.857-159.429-158.857-159.429s-159.429 71.429-159.429 159.429c0 87.429 71.429 158.857 159.429 158.857s158.857-71.429 158.857-158.857zM1145.143 381.714c0-88-71.429-158.857-159.429-158.857-87.429 0-158.857 70.857-158.857 158.857s71.429 158.857 158.857 158.857c88 0 159.429-70.857 159.429-158.857zM594.286 380c0 145.714-118.286 264-264 264-145.143 0-263.429-118.286-263.429-264s118.286-264 263.429-264c145.714 0 264 118.286 264 264zM976 707.428c-94.286 41.143-200.571 63.429-317.714 63.429s-233.714-22.286-327.429-62.857c181.143-0.571 327.429-146.857 327.429-328 0 177.714 141.143 322.286 317.714 327.429zM1249.714 380c0 145.714-117.714 264-263.429 264s-264-118.286-264-264 118.286-264 264-264 263.429 118.286 263.429 264zM1097.714 703.428h218.857c-34.286-40-59.429-93.714-65.714-130.857 39.429-54.286 62.857-120.571 62.857-192.571 0-181.143-146.857-327.429-327.429-327.429-102.857 0-194.286 46.857-254.286 120.571 0 0-26.857-32-73.714-102.286-8 16.571-48.571 74.286-73.143 102.857-60-74.286-152-121.143-254.857-121.143-180.571 0-327.429 146.286-327.429 327.429 0 72 23.429 138.286 62.857 192.571-6.286 37.143-31.429 90.857-65.714 130.857h208.571c112 74.857 274.857 121.714 449.714 121.714s327.429-46.857 439.429-121.714z" />
<glyph unicode="&#xe91b;" glyph-name="arrow-left" d="M725.333 469.334h-323.669l97.835 97.835c16.683 16.683 16.683 43.648 0 60.331s-43.648 16.683-60.331 0l-200.832-200.832 200.832-200.832c8.32-8.32 19.243-12.501 30.165-12.501s21.845 4.181 30.165 12.501c16.683 16.683 16.683 43.648 0 60.331l-97.835 97.835h323.669c23.552 0 42.667 19.115 42.667 42.667s-19.115 42.667-42.667 42.667z" />
<glyph unicode="&#xe91c;" glyph-name="chevrons-up" d="M755.499 499.499l-213.333 213.333c-16.683 16.683-43.691 16.683-60.331 0l-213.333-213.333c-16.683-16.683-16.683-43.691 0-60.331s43.691-16.683 60.331 0l183.168 183.168 183.168-183.168c16.683-16.683 43.691-16.683 60.331 0s16.683 43.691 0 60.331zM755.499 200.832l-213.333 213.333c-16.683 16.683-43.691 16.683-60.331 0l-213.333-213.333c-16.683-16.683-16.683-43.691 0-60.331s43.691-16.683 60.331 0l183.168 183.168 183.168-183.168c16.683-16.683 43.691-16.683 60.331 0s16.683 43.691 0 60.331z" />
<glyph unicode="&#xe91d;" glyph-name="arrow_down" d="M316 572.667l196-196 196 196 60-60-256-256-256 256z" />
<glyph unicode="&#xe91e;" glyph-name="chevrons-right" d="M584.832 183.168l213.333 213.333c16.683 16.683 16.683 43.691 0 60.331l-213.333 213.333c-16.683 16.683-43.691 16.683-60.331 0s-16.683-43.691 0-60.331l183.168-183.168-183.168-183.168c-16.683-16.683-16.683-43.691 0-60.331s43.691-16.683 60.331 0zM286.165 183.168l213.333 213.333c16.683 16.683 16.683 43.691 0 60.331l-213.333 213.333c-16.683 16.683-43.691 16.683-60.331 0s-16.683-43.691 0-60.331l183.168-183.168-183.168-183.168c-16.683-16.683-16.683-43.691 0-60.331s43.691-16.683 60.331 0z" />
<glyph unicode="&#xe91f;" glyph-name="chevrons-left" d="M499.499 243.499l-183.168 183.168 183.168 183.168c16.683 16.683 16.683 43.691 0 60.331s-43.691 16.683-60.331 0l-213.333-213.333c-16.683-16.683-16.683-43.691 0-60.331l213.333-213.333c16.683-16.683 43.691-16.683 60.331 0s16.683 43.691 0 60.331zM798.165 243.499l-183.168 183.168 183.168 183.168c16.683 16.683 16.683 43.691 0 60.331s-43.691 16.683-60.331 0l-213.333-213.333c-16.683-16.683-16.683-43.691 0-60.331l213.333-213.333c16.683-16.683 43.691-16.683 60.331 0s16.683 43.691 0 60.331z" />
<glyph unicode="&#xe920;" glyph-name="chevrons-down" d="M268.501 353.835l213.333-213.333c16.683-16.683 43.691-16.683 60.331 0l213.333 213.333c16.683 16.683 16.683 43.691 0 60.331s-43.691 16.683-60.331 0l-183.168-183.168-183.168 183.168c-16.683 16.683-43.691 16.683-60.331 0s-16.683-43.691 0-60.331zM268.501 652.502l213.333-213.333c16.683-16.683 43.691-16.683 60.331 0l213.333 213.333c16.683 16.683 16.683 43.691 0 60.331s-43.691 16.683-60.331 0l-183.168-183.168-183.168 183.168c-16.683 16.683-43.691 16.683-60.331 0s-16.683-43.691 0-60.331z" />
<glyph unicode="&#xe921;" glyph-name="close" d="M512 533.197l-362.035 362.035-72.397-72.397 362.035-362.035-362.035-362.035 72.397-72.397 362.035 362.035 362.035-362.035 72.397 72.397-362.035 362.035 362.035 362.035-72.397 72.397-362.035-362.035z" />
<glyph unicode="&#xe92c;" glyph-name="star" d="M512 202.667l-264-160 70 300-232 202 306 26 120 282 120-282 306-26-232-202 70-300z" />
<glyph unicode="&#xe967;" glyph-name="undo21" d="M761.862-64c113.726 206.032 132.888 520.306-313.862 509.824v-253.824l-384 384 384 384v-248.372c534.962 13.942 594.57-472.214 313.862-775.628z" />
<glyph unicode="&#xea1c;" glyph-name="play3" d="M192 832l640-384-640-384z" />
<glyph unicode="&#xea92;" glyph-name="instagram2" d="M512 867.8c136.8 0 153-0.6 206.8-3 50-2.2 77-10.6 95-17.6 23.8-9.2 41-20.4 58.8-38.2 18-18 29-35 38.4-58.8 7-18 15.4-45.2 17.6-95 2.4-54 3-70.2 3-206.8s-0.6-153-3-206.8c-2.2-50-10.6-77-17.6-95-9.2-23.8-20.4-41-38.2-58.8-18-18-35-29-58.8-38.4-18-7-45.2-15.4-95-17.6-54-2.4-70.2-3-206.8-3s-153 0.6-206.8 3c-50 2.2-77 10.6-95 17.6-23.8 9.2-41 20.4-58.8 38.2-18 18-29 35-38.4 58.8-7 18-15.4 45.2-17.6 95-2.4 54-3 70.2-3 206.8s0.6 153 3 206.8c2.2 50 10.6 77 17.6 95 9.2 23.8 20.4 41 38.2 58.8 18 18 35 29 58.8 38.4 18 7 45.2 15.4 95 17.6 53.8 2.4 70 3 206.8 3zM512 960c-139 0-156.4-0.6-211-3-54.4-2.4-91.8-11.2-124.2-23.8-33.8-13.2-62.4-30.6-90.8-59.2-28.6-28.4-46-57-59.2-90.6-12.6-32.6-21.4-69.8-23.8-124.2-2.4-54.8-3-72.2-3-211.2s0.6-156.4 3-211c2.4-54.4 11.2-91.8 23.8-124.2 13.2-33.8 30.6-62.4 59.2-90.8 28.4-28.4 57-46 90.6-59 32.6-12.6 69.8-21.4 124.2-23.8 54.6-2.4 72-3 211-3s156.4 0.6 211 3c54.4 2.4 91.8 11.2 124.2 23.8 33.6 13 62.2 30.6 90.6 59s46 57 59 90.6c12.6 32.6 21.4 69.8 23.8 124.2 2.4 54.6 3 72 3 211s-0.6 156.4-3 211c-2.4 54.4-11.2 91.8-23.8 124.2-12.6 34-30 62.6-58.6 91-28.4 28.4-57 46-90.6 59-32.6 12.6-69.8 21.4-124.2 23.8-54.8 2.6-72.2 3.2-211.2 3.2v0zM512 711c-145.2 0-263-117.8-263-263s117.8-263 263-263 263 117.8 263 263c0 145.2-117.8 263-263 263zM512 277.4c-94.2 0-170.6 76.4-170.6 170.6s76.4 170.6 170.6 170.6c94.2 0 170.6-76.4 170.6-170.6s-76.4-170.6-170.6-170.6zM846.8 721.4c0-33.91-27.49-61.4-61.4-61.4s-61.4 27.49-61.4 61.4c0 33.91 27.49 61.4 61.4 61.4s61.4-27.49 61.4-61.4z" />
</font>
</defs>
</svg>
